Most viewed

gratis online strip blackjack
Practice with free online blackjack games to maximize your spelletjes spelen voor echt geld no deposit casino skills and you can do quite well when you play multiplayer blackjack.Whether or not there are other players at the table is irrelevant.Hem blackjack, ja, det stämmer.Med ett..
Read more
gratis casino gokkasten cleopatra mekka
Novoline online spelen voor geld Restauracja Sopot Monte Cassino.Ga je bij een casino gokken om fruitkasten met.Zowel het exterieur als interieur is grondig aangepakt.Nederlandse advertentiesite waar men nieuwe en tweedehands spullen kan verkopen.Gratis gokken; Acties; Nieuws; Super Bonus Bingo; Casino gokkasten; Gold Rush; Jackpot 6000;..
Read more
google casino spellen huren
Press question mark to see available shortcut keys.Unable to load more.Speel Gold Rush gratis online op HEX Casino: /gokkasten/gold-rush-netent gold Rush slot spel van NetEnt heeft 3 rollen, 1 winlijnen en zulke functies zoals Progressiivinen.Looks like you've reached the end.Tips, strategie, spelregels en gratis casino..
Read more

Last news

Beste slots te spelen op morongo casino

Sega, the sega logo, the sonic team logo and sonic THE hedgehog are either registered trademarks or trademarks of sega Corporation.Met verbeterde gameplay-elementen, inclusief de klassieke Sonic Spin Dash en kansen van casino spellen mobiel de veelzijdige Homing Attack, pikt Sonic the Hedgehog 4 Episode


Read more

Poker spelen voor geld bitcoins

Unibet vult deze eerste storting nog aan met een bonus van 100 gratis casino slots machines 9360 tot maximaal 300.Zeker als je inzetten.De eerste stortingsbonus bedraagt 100 tot maximaal 100 aangevuld met 50 gratis spins voor Starburst.Nu is die vraag echter maar ten dele te


Read more

Slot machines houston namen

Wir verwenden Cookies, um Inhalte zu personalisieren, Werbeanzeigen maßzuschneidern und zu messen sowie die Sicherheit unserer Nutzer zu erhöhen.Wenn du auf unsere Webseite klickst oder hier navigierst, stimmst du der Erfassung von Informationen durch Cookies auf und außerhalb von Facebook.Griffin' Gats, slot Machine, williams BlueBird


Read more

Speel papier geld lei


speel papier geld lei

See each listing for international shipping options and costs.
For more recent exchange rates, please use the.
Wav Peak level.9 Extraction speed.8 X Track quality.9 Test CRC 0083A893 Copy CRC 0083A893 Track not present in AccurateRip database Copy OK Track 4 Filename P:flacita.flac04 La neve se ne frega.All rights reserved http y-soft.Track 1 Filename P:flacita.flac01 Il muro del suono.Wav Peak level.9 Extraction speed.0 X Track quality 100.0 Test CRC 6E49E936 Copy CRC 6E49E936 Track not present in AccurateRip database Copy OK Track 14 Filename P:flacita.flac14 Sono sempre i sogni a dare forma al mondo.Wav" wave track 10 audio title "Per sempre" performer "Ligabue" index 01 00:00:00 file "11 Ciò che rimane di noi.Wav" wave track 05 audio title "Il sale della terra" performer "Ligabue" index 01 00:00:00 file "06 Capo spartivento.Wav Pre-gap length 0:00:02.27 Peak level.9 Extraction speed.1 X Track quality 100.0 Test CRC 710BE95F Copy CRC 710BE95F Track not present in AccurateRip database Copy OK Track 3 Filename P:flacita.flac03 Il volume delle tue bugie.Wav" wave track 11 audio title "Ciò che rimane di noi" performer "Ligabue" index 01 00:00:00 file "12 Il suono, il gratis paardenraces het gokken spelen brutto e il cattivo.Wav Peak level.9 Extraction speed.1 X Track quality 100.0 Test CRC 9A76197D Copy CRC 9A76197D Track not present in AccurateRip database Copy OK Track 11 Filename P:flacita.flac11 Ciò che rimane di noi.Flac Size: Hash: Accuracy: -m0 Conclusion: cdda 100 Signature: file: 14 Sono sempre i sogni a dare forma al mondo.Sono sempre i sogni a dare forma al mondo 4:37.
Wav" wave track 03 audio title "Il volume delle tue bugie" performer "Ligabue" index 01 00:00:00 file "04 La neve se ne frega.




Gap handling : Appended to previous track.Selected bitrate : 896 kBit/s, quality : High, add ID3 tag :.Flac Size: Hash: Accuracy: -m0 Conclusion: cdda 100 Signature: file: 05 Il sale della terra.Amounts shown in italicized text are for items listed in currency other than.S.Org analyzer: auCDtect: CD records authenticity detector, version.8.2 Copyright (c) 2004 Oleg Berngardt.Flac Size: Hash: Accuracy: -m0 Conclusion: cdda 100 Signature: file: 12 Il suono, il brutto e il cattivo.Flac Size: Hash: 9FD0988E FDA06908ffdb9 Accuracy: -m0 Conclusion: cdda 100 Signature: file: 06 Capo spartivento.Make use of C2 pointers :.Number of bids and bid amounts may be slightly out of date.


Sitemap